Mailing ListMailing List   FAQFAQ   SearchSearch   MemberlistMemberlist   RegisterRegister 
 ProfileProfile   Log in to check your private messagesLog in to check your private messages   Log inLog in 

Import Markers offset not added

 
Post new topic   Reply to topic    www.hairersoft.com Forum Index -> Discussion
View previous topic :: View next topic  
Author Message
absurd



Joined: 14 Feb 2014
Posts: 2

PostPosted: Fri Feb 14, 2014 2:10 am    Post subject: Import Markers offset not added Reply with quote

Hi,

I use an external python script that adds additional markers (or tracks) into the cuefile that I created with Amadeus Pro via Export Markers.

When I reimport the marker/.cue file into Amadeus Pro, it seems that the
Code:
REM Offset
line is not evaluated by Amadeus Pro.

Here's the snippet from my cuefile:

Code:
TITLE "AlbatroA.wav"
FILE "AlbatroA.wav" WAVE
  TRACK 01 AUDIO
    TITLE "s"
    INDEX 01 00:00:00
    REM COLOR black
  TRACK 02 AUDIO
    TITLE "Er"
    INDEX 01 00:00:03
    REM COLOR black
  TRACK 03 AUDIO
    TITLE "soll"
    INDEX 01 00:00:14
    REM OFFSET 0.003333
    REM COLOR black


The third track is displayed in Amadeus Pro 2.1.5 at 186ms.
The intended value was 190ms.
There are 14 frames, i.e., 186,66...ms (14/75*1000).
It just seems that the offset value of 0.003333 is not added here, as (14/75+0.003333)*1000 would be 189,99ms.

Is this a bug?

Thanks for your help.
Back to top
View user's profile Send private message
absurd



Joined: 14 Feb 2014
Posts: 2

PostPosted: Fri Feb 14, 2014 8:44 pm    Post subject: Sorry, my fault. Reply with quote

Sorry, after a break of some hours, I looked at the code again and found out that there was an error in it:

It's not (14/75+0.003333)*1000 but (14/75*1000+0.003333*1000) which indeed equals 189.99966666666668 (190ms).
I just didn't realize that the offset is given in ms in cuesheet syntax.
Back to top
View user's profile Send private message
Display posts from previous:   
Post new topic   Reply to topic    www.hairersoft.com Forum Index -> Discussion All times are GMT
Page 1 of 1

 
Jump to:  
You cannot post new topics in this forum
You cannot reply to topics in this forum
You cannot edit your posts in this forum
You cannot delete your posts in this forum
You cannot vote in polls in this forum


Powered by phpBB © 2001, 2005 phpBB Group